Enhanced CD - DiscID issue - Track 1 Multimedia

Tags: #<Tag:0x00007fea3c090e88>

Hi,
I need some help with adding the DiscID to this release. It’s an enhanced CD and the “Multimedia-track” is placed on Track 1. (If you check the back cover it’s listed as Track 0)

If I try to add the DiscID as it is right now, the system gives me this message:
None of the mediums on this release can have the given CD TOC attached, because they have the wrong number of tracks.

TOC of the extracted CD

 Track |   Start  |  Length  | Start sector | End sector 
---------------------------------------------------------
    1  |  0:00.00 | 23:55.59 |         0    |   107683   
    2  | 23:55.59 |  4:28.37 |    107684    |   127820   
    3  | 28:24.21 |  4:23.65 |    127821    |   147610   
    4  | 32:48.11 |  5:07.19 |    147611    |   170654   
    5  | 37:55.30 |  4:35.04 |    170655    |   191283   
    6  | 42:30.34 |  4:47.65 |    191284    |   212873   
    7  | 47:18.24 |  4:06.18 |    212874    |   231341   
    8  | 51:24.42 |  4:26.21 |    231342    |   251312   
    9  | 55:50.63 |  4:38.09 |    251313    |   272171   
   10  | 60:28.72 |  5:01.14 |    272172    |   294760   
   11  | 65:30.11 |  5:24.49 |    294761    |   319109   

How should I edit the tracklist?

Thanks in advance.

1 Like

I think editing the release and ticking this option at the bottom of the tracklist should do it?

image

edit: or the below, oops :flushed:

1 Like

My understanding is that you will have to insert a [data track] in the first position of the medium, similar to Release “Final Fantasy VIII” by 王菲 - MusicBrainz from Disc ID “u8ay0s9ZGJGJWjQ65Llk5Qjhs28-” - MusicBrainz

5 Likes

I have ticked the first option and adjusted the tracklist according to the TOC data. I guess I need to wait until the changes are through…

This did the trick! Thank you!

FYI, This is not an “Enhanced CD” as the term is defined on MusicBrainz.

Enhanced CD means CD-Extra (aka blue book, CD+, etc.) which has data tracks in a separate session. On such a CD, the data track is completely invisible to ordinary CD players (as they do not implement multiple sessions).

This appears to be a mixed-mode CD-ROM (yellow book).

7 Likes

Oh, wow! Thank you for sharing this information.
Looks like there’s no option to mark it as such. Should I change it to CD only?

1 Like